#TITLE:Silent Night, Bodom Night;
#SUBTITLE:~Magna Trick original~;
#ARTIST:Children of Bodom;
#TITLETRANSLIT:;
#SUBTITLETRANSLIT:;
#ARTISTTRANSLIT:;
#CREDIT:Magna Trick;
#BANNER:SNBN-BN.png;
#BACKGROUND:SNBN-BG.png;
#LYRICSPATH:;
#CDTITLE:Magna Trick title!.png;
#MUSIC:02- children of bodom - Silent Night, Bodom Night.mp3;
#OFFSET:-0.200;
#SAMPLESTART:35.976;
#SAMPLELENGTH:11.980;
#SELECTABLE:YES;
#BPMS:0.000=237.920,156.000=118.960,172.500=59.479,184.500=29.739,186.000=59.479,187.000=118.960,201.000=237.920,365.000=118.960,379.000=178.040,382.000=118.959,414.000=59.479,425.000=118.959,467.000=59.479,479.000=29.739,480.500=59.479,481.000=118.959,484.000=178.039,487.000=237.960;
#STOPS:28.000=0.800
;
#BGCHANGES:;
// cache tags:
#FIRSTBEAT:0.000;
#LASTBEAT:492.667;
#SONGFILENAME:Songs/Chilean Keyboard Megapack 3/(Magna Trick) Silent Night, Bodom Night/Silent Night, Bodom Night.sm;
#HASMUSIC:1;
#HASBANNER:1;
#MUSICLENGTH:192.687;
// end cache tags

//---------------dance-single - ----------------
#NOTES:
     dance-single:
     :
     Challenge:
     12:
     1.000,1.000,0.908,0.737,1.000,1339.000,175.000,142.000,0.000,33.000:
1001
0010
1000
0100
1000
0001
0100
0001
0010
0100
0010
0001
,
2000
3200
0320
0032
,
2003
3020
0230
0302
,
2003
0000
0000
0000
,
3001
0010
0100
1000
0001
0100
0010
1000
0001
0010
0100
1000
,
0010
0100
0010
1000
0100
0010
1002
0000
0000
2003
0000
0000
,
3020
0230
0302
2003
,
3011
0000
0000
1000
0100
0010
0001
0010
0100
1000
0100
0010
,
0001
0100
0010
1000
0010
0100
0001
1000
0010
0200
0000
0000
,
0302
2003
3200
0320
,
0032
2003
0000
0000
,
3000
0000
0000
0100
0010
0001
1000
0010
0100
0001
1000
0100
,
1000
0001
0100
0001
0010
0100
1000
0010
0100
0002
0000
0000
,
2003
3200
0320
0032
,
2003
3020
0000
0000
,
0030
0000
0000
0010
0100
1000
0001
0100
0010
1000
0001
0010
,
0001
1000
0010
1000
0100
0010
0001
0100
0010
2000
0000
0000
,
3002
0023
0230
2300
,
3002
0203
0000
0000
,
0300
0000
0000
1000
0001
0100
0010
0001
1000
0100
0010
1000
,
0010
0100
1000
0100
0001
1000
0010
0001
1000
0200
0000
0000
,
0320
0000
0000
0000
0031
1000
0001
1000
0002
0000
0000
0000
0203
0000
0000
0000
,
0320
0000
0000
0000
1030
0001
1000
0001
1000
0001
1000
0001
2000
0000
0000
0000
,
3200
0000
0000
0311
0100
1000
0001
0100
0010
1000
0001
0010
,
0001
1000
0010
1000
0100
0010
0001
0100
0010
2000
0000
0000
,
3002
0023
0230
2300
,
3002
0203
0000
0000
,
0300
0000
0000
1100
0010
0001
1000
0010
0100
0001
1000
0100
,
1000
0001
0100
0001
0010
0100
1000
0010
0100
0002
0000
0000
,
2003
3200
0320
0032
,
2003
0000
0000
3020
0000
0000
0000
0000
0000
0000
0000
0030
,
1001
0000
0000
1001
0010
0100
0001
1000
0100
0010
0001
0010
,
0100
1000
0010
0100
0001
1000
0100
0010
0001
0020
0000
0000
,
0230
2300
3020
0230
,
0302
0000
0000
2003
0000
0000
0000
0000
0000
0000
0000
3000
,
0110
0000
0000
1001
0100
0010
0101
0010
0100
1000
0010
0100
,
0001
1000
0100
0010
0100
0010
0001
1000
0001
1000
0010
0100
,
0001
1000
0100
0021
0000
0000
1032
0000
0000
2013
0000
0000
,
3120
0231
0302
2013
,
3000
0000
1001
0000
1000
0010
0000
0010
1000
0000
0110
0000
0000
0011
0000
0000
,
1001
0000
1010
0000
0100
0000
1001
0000
0001
1000
0000
1000
0100
0010
1001
0000
,
0100
1000
0102
0000
0010
0000
0103
0000
0010
1000
1000
0000
0100
0010
0000
0010
,
0001
0000
1001
0000
0001
1000
0100
1000
0001
0100
0001
0010
0100
0010
0001
1000
,
0010
0000
0100
0000
1001
0000
0000
0000
0001
1000
0101
1001
0000
0000
0000
0000
0001
0010
1100
1001
0000
0000
0001
1000
0001
0000
1000
0100
1000
0000
0001
0010
,
0001
0010
0100
0010
1200
0000
0000
0000
1300
0001
1000
0110
0000
0000
0000
0000
0100
0001
1000
0110
0000
0010
0001
1000
0100
1000
0001
0010
0100
0010
0001
1000
,
0010
0100
1000
0001
0110
0000
0000
0000
0001
1000
0100
0011
0000
0000
0000
0000
0001
0010
0100
1001
0000
0000
1000
0100
1000
0000
0001
0100
0001
0000
0010
0100
,
0010
0000
0000
0000
0000
0000
0001
0000
0000
0000
0000
0000
1000
0000
0000
0000
0000
0000
0010
0000
0000
0000
0000
0000
0101
0000
0000
0000
0000
0000
1000
0000
0000
0000
0000
0000
1100
0000
0000
0000
0000
0000
0010
0000
0000
0000
0000
0000
0001
0000
0000
0000
0000
0000
0010
0000
0000
0000
0000
0000
0100
0000
0000
0000
0000
0000
1000
0000
0000
0000
0000
0000
0011
0000
0000
0000
0000
0000
0000
0000
0000
0000
0000
0000
0110
0000
0000
0000
0000
0000
0000
0000
0000
0000
0000
0000
0000
0000
0000
0000
0000
0000
0000
0000
0000
0000
0000
0000
0000
0000
0000
0000
0000
0000
0000
0000
0000
0000
0000
0000
0000
0000
0000
0000
0000
0000
0000
0000
0000
0000
0000
0000
0110
0000
0000
0000
0000
0000
0000
0000
0000
0000
0000
0000
1001
0000
0000
0000
0000
0000
0000
0000
0010
0000
0000
0000
0000
0000
0000
0000
0100
0000
0000
0000
0000
0000
0000
0000
0001
0000
0000
0000
0000
0000
0000
0000
1000
0000
0000
0000
0000
0000
0000
0000
0100
0000
0000
0000
0000
0000
0000
0000
,
0010
0001
0010
0001
0100
0010
0100
0010
1000
0100
0010
0001
0010
0100
1000
0010
0100
0010
1001
0100
0010
0100
0010
0001
,
1100
0010
1000
0001
1000
0001
0220
0000
0000
0000
0000
0000
0330
0000
0000
0000
0000
0000
1001
0100
0010
1000
0001
0010
,
0100
1000
0100
1000
0010
0100
0010
0100
0001
0010
0100
1000
0100
0010
0001
0100
0010
0100
1001
0010
0100
0010
0100
1000
,
0011
0100
0001
1000
0001
1000
0220
0000
0000
0000
0000
0000
0000
0000
0000
0000
0330
0000
2002
0000
0000
0000
0000
0000
,
0000
3003
0000
0011
1000
0100
1000
0001
0010
0100
0010
0001
,
1000
0010
0100
0001
1000
0100
0010
0001
0010
1100
0010
0001
,
1000
0010
0100
0001
1000
0100
0010
0001
0010
0100
1000
0010
,
0001
1000
0100
0002
0000
0000
0000
0000
0000
0000
0000
0000
,
0000
0003
0000
1001
0010
1000
0001
0010
0100
0010
0001
1000
,
0010
0100
0010
1000
0001
0010
0100
1000
0001
0110
0000
0000
,
1000
0000
0000
0100
0010
0001
0010
0100
1000
0010
1000
0001
,
0010
0000
0000
0000
0001
0000
0000
0000
0100
0000
0000
0000
0010
0000
0000
1000
0000
0000
0010
0000
0000
1000
0000
0000
0010
0000
0000
1000
0000
0000
0010
0000
0000
1000
0000
0000
0010
0000
0000
1000
0000
0000
0010
0000
0000
1000
0000
0000
,
0020
0000
0030
0101
1000
0100
1000
0001
0100
0001
0010
0100
,
0010
0001
1000
0010
0100
0001
1000
0100
1000
0012
0000
0000
,
1000
0003
0000
0110
1000
0001
0100
0001
0010
0100
0010
0001
,
0100
1000
0100
1002
0000
0000
1000
0000
0000
0103
0000
0000
,
0010
0000
0000
0011
0100
0001
1000
0100
0010
0001
0010
0100
,
1000
0100
0010
0001
0100
1000
0001
0100
0001
1010
0000
0000
,
1000
0000
0000
0100
0001
0010
0100
0010
0001
1000
0010
0100
,
0001
0000
0000
0000
1000
0000
0000
0000
0100
0000
0000
0000
0010
0000
0000
0001
0000
0000
1000
0000
0000
0001
0000
0000
1000
0000
0000
0001
0000
0000
1000
0000
0000
0001
0000
0000
1000
0000
0000
0010
0000
0000
0100
0000
0000
0010
0000
0000
,
0100
0000
0000
0010
0000
0000
0100
0000
0000
0010
0000
0000
1001
0000
0000
0000
0010
0000
0000
0000
1000
0000
0000
0000
0100
0000
0000
0000
1000
0000
0000
0000
0001
0000
0000
0000
0100
0000
0000
0000
0001
0000
0000
0000
0010
0000
0000
0000
,
0100
0010
0001
1000
0010
0100
0001
1000
0100
0012
0000
0000
,
1003
0000
0000
0100
0010
0001
0010
0100
1000
0010
0100
0010
,
0100
0001
1000
0002
0000
0000
0100
0000
0000
1003
0000
0000
,
0010
0000
0000
1000
0100
0010
0001
0010
0100
1000
0010
0100
,
0001
1000
0100
0010
0001
0010
0100
1000
0010
0100
0001
1000
,
0100
0000
0000
0000
0010
0000
0000
0000
0001
0000
0000
0000
0110
0000
0000
0001
0000
0000
0010
0000
0000
0100
0000
0000
1000
0000
0000
0001
0000
0000
0010
0000
0000
0100
0000
0000
1000
0000
0000
0001
0000
0000
0010
0000
0000
0100
0000
0000
,
1000
0001
0010
0100
2001
0000
0000
0000
0000
0000
0000
0000
0000
0000
0000
0000
,
3101
0010
1000
0110
0001
0100
1010
0001
1000
0100
0010
0001
,
1010
0100
1000
0011
1000
0001
0110
0001
0100
0020
0000
0000
,
2031
3210
0321
1032
,
2003
0000
0000
0000
0000
0000
3120
0000
0000
0000
0000
0000
0000
0000
0000
0030
0000
0000
0101
0000
0010
0000
0100
0000
,
1001
0010
0001
1100
0010
0100
0011
1000
0100
0010
0001
0010
,
0101
1000
0010
1100
0001
0100
0011
1000
0001
0200
0000
0000
,
0321
2031
3201
0321
,
0032
0000
0000
0000
0000
0000
2103
0000
0000
0000
0000
0000
0000
0000
0000
3000
0000
0000
1010
0000
0100
0000
0010
0000
,
1001
0100
1000
0011
0100
0010
1100
0001
0010
0100
1000
0100
,
1010
0001
0100
0011
1000
0010
1100
0001
1000
0020
0000
0000
,
1230
1302
1023
1230
,
2300
0000
0000
0000
0000
0000
3012
0000
0000
0000
0000
0000
0000
0000
0000
0003
0000
0000
1100
0000
0001
0000
1000
0000
,
0110
0001
0100
1010
0001
1000
0101
0010
1000
0001
0100
0001
,
1100
0010
0001
1010
0100
1000
0101
0010
0100
2000
0000
0000
,
3102
0123
2130
3102
,
0203
0000
0000
0000
0000
0000
1320
0000
0001
0000
0100
0000
0001
0000
0100
0030
0001
0000
0100
0000
0001
0000
0100
0000
,
0001
0000
0000
0000
0100
0000
0000
0000
0001
0000
0000
0000
0110
0000
0000
1000
0000
0000
0100
0000
0000
1000
0000
0000
0001
0000
0000
0100
0000
0000
0001
0000
0000
0010
0000
0000
0100
0000
0000
0010
0000
0000
0001
0000
0000
1000
0000
0000
,
0010
0100
0001
1000
0110
1000
0001
0010
1000
0010
0001
1000
0010
0001
0010
1000
,
0001
0100
0001
1000
0110
1000
0001
0010
0100
0010
0001
1000
0010
0100
0001
1000
,
0010
0000
1000
0000
0001
0000
0010
0000
0102
0000
0000
0000
0000
0000
0000
0000
1000
0000
0000
0000
0003
0000
0000
0000
0001
0000
0000
1000
0000
0000
0100
0000
,
0000
0010
0000
0000
0001
0000
0000
0100
0000
0000
0001
0000
0000
0010
0000
0000
1100
0000
0000
0000
1000
0000
0001
0000
1000
0000
0000
0000
1000
0000
0001
0000
,
1000
0000
1000
0001
1000
0001
1000
0001
1001
0000
1000
0001
1000
0000
1000
0001
,
1000
0000
1000
0001
1000
0010
1100
0001
1001
0000
1000
0001
1000
0000
1000
0001
,
1000
0000
0000
0000
0000
0000
1000
0000
0000
0010
0000
0000
1100
0000
0000
0001
0000
0000
1000
0000
0000
0100
0000
0000
2002
0000
0000
0000
0000
0000
0000
0000
0000
0000
0000
0000
3003
0000
0000
0000
0000
0000
0001
0000
0010
0000
0100
0000
,
1000
0000
0100
0000
0010
0000
0001
0000
0000
0010
0000
0000
0100
0000
0000
1000
0000
0000
0010
0000
0000
0100
0000
0000
0011
0000
0000
0000
0000
0000
0001
0000
0000
1000
0000
0000
0001
0000
0000
0000
0000
0000
0001
0000
0000
1000
0000
0000
,
0001
0000
0001
1000
0001
1000
0001
1000
1001
0000
0001
1000
0001
0000
0001
1000
,
0001
0000
0001
1000
0001
0100
0011
1000
1002
0000
0000
0000
1000
0000
0000
0000
,
0123
0000
0000
0000
0100
0000
0000
0000
1031
0000
0001
0010
0100
1000
0010
0100
,
0001
0000
1000
0000
0100
0000
0010
0000
0001
0000
0010
0000
0100
0000
1000
0000
0110
0001
0010
0100
1000
0010
1000
0100
0010
0001
0100
0010
1000
0001
1000
0001
,
1000
0010
0100
0001
1000
0100
1000
0100
0010
0001
1000
0100
0020
0000
0000
0000
0131
1000
0100
0010
0001
0100
0001
0010
0100
1000
0010
0100
0001
1000
0001
1000
,
0001
0000
0000
0000
0000
0000
0100
0000
0000
0000
0000
0000
0010
0000
0000
0000
0000
0000
1000
0000
0000
0000
0000
0000
0001
0000
0000
0000
0000
0000
0010
0000
0000
0000
0000
0000
0001
0000
0000
0000
0000
0000
0010
0000
0000
0000
0000
0000
0100
0000
0000
0000
0000
0000
1000
0000
0000
0000
0000
0000
0001
0000
0000
0000
0000
0000
0010
0000
0000
0000
0000
0000
0100
0000
0000
0000
0000
0000
1000
0000
0000
0000
0000
0000
0100
0000
0000
0000
0000
0000
1000
0000
0000
0000
0000
0000
0101
0000
0000
0000
0010
0000
0000
0000
0100
0000
0000
0000
0010
0000
0000
0000
0100
0000
0000
0000
0010
0000
0000
0000
1001
0000
0000
0000
0010
0000
0000
0000
0001
0000
0000
0000
0010
0000
0000
0000
0001
0000
0000
0000
0010
0000
0000
0000
1100
0000
0000
0000
0010
0000
0000
0000
0100
0000
0000
0000
0010
0000
0000
0000
0100
0000
0000
0000
0010
0000
0000
0000
0101
0000
0000
0000
0010
0000
0000
0000
0100
0000
0000
0000
1000
0000
0000
0000
0100
0000
0000
0000
1000
0000
0000
0000
,
0012
0000
0000
0000
1103
0000
1001
0000
0101
0000
0011
1100
0000
0010
0001
1000
,
0100
1000
0001
0010
0100
0010
0001
1000
0010
0100
0001
0100
0010
1000
0001
1000
,
0100
0010
0001
0010
1100
0000
2002
0000
0000
0000
3003
0000
1001
1000
0010
0100
,
0010
1000
0001
0010
1100
0010
0001
1000
0010
0100
0001
0010
0101
1000
0001
1000
,
0001
0000
0100
0000
0010
0000
1000
0000
0102
0000
0000
0000
0000
0000
0000
0000
0000
0000
0000
0000
0000
0000
0000
0000
1003
0010
0100
0010
0100
0001
1000
0010
,
0100
0010
0100
0001
1000
0010
0100
0010
0100
0001
1000
0010
0100
0010
0100
0001
1000
0010
0100
0010
0100
0001
1000
0010
0100
0001
1000
0100
0010
0001
1000
0100
,
0010
0001
0100
0010
1000
0001
0100
0010
2000
0000
0100
0000
0010
0000
0001
0000
0010
0000
0100
0000
0010
0000
0001
0000
3120
0000
0000
0000
0000
0000
0000
0000
,
0000
0000
0000
0000
0000
0000
1030
0000
0000
0001
0000
0000
2020
0000
0000
0000
0000
0000
3030
0000
0000
0220
0000
0000
0000
0000
0000
0330
0000
0000
0001
0000
0010
0000
0100
0000
2000
0000
0000
0000
0000
0000
0000
0000
0000
0000
0000
0000
,
3001
0010
0100
1000
0010
1000
0100
0010
0001
0100
0001
0010
2100
0000
0000
0000
,
0000
0000
0000
0000
0000
0000
3001
0000
0000
1000
0000
0000
0022
0000
0000
0000
0000
0000
0033
0000
0000
2020
0000
0000
0000
0000
0000
3030
0000
0000
0100
0000
0001
0000
1000
0000
0200
0000
0000
0010
0000
0000
0001
0000
0000
1000
0000
0000
,
0001
0000
0010
0000
0001
0000
1000
0000
0001
0000
0010
0000
0001
0000
1000
0000
0301
0000
0010
0000
0100
0000
1000
0000
1001
0000
0000
0000
1000
0001
1010
1001
,
0000
0000
0000
0000
1000
0100
0011
1001
0000
0000
1000
0001
1000
0000
0001
0010
0001
0000
1000
0100
1000
0100
0010
0100
0021
0000
0000
0000
0031
1000
0001
0110
,
0000
0000
0000
0000
0010
1000
0001
0110
0000
0100
1000
0001
0010
0001
1000
0100
0010
0100
1000
0001
0100
0010
0001
1000
0110
0000
0000
0000
1000
0001
0010
1100
,
0000
0000
0000
0000
1000
0100
0010
1001
0000
0000
0001
0010
0001
0000
1000
0010
1000
0000
0100
0010
0100
1000
0001
0100
1010
0001
0110
0001
0010
0100
1000
0010
,
0101
0000
0000
1001
0000
0000
0000
0000
0000
0000
0000
0000
0000
0000
0000
0000
0000
0000
0000
0000
0000
0000
0000
0000
1001
0000
0010
0000
0100
0000
0001
0000
1000
0000
0100
0000
1010
0000
0001
0000
0010
0000
0100
0000
1000
0000
0001
0000
,
0110
1000
0100
1000
0001
0010
1001
0010
0001
1000
0010
0100
2002
0000
0000
0000
,
0000
3003
0000
0011
0000
0110
0000
1100
0000
2002
0000
0000
,
0000
0000
3003
0000
0000
0000
0000
0000
0000
0000
0000
0000
;
